Fast and Furious 7 2015 720p HDTS x264 AC3-TiTAN - Quá Nhanh, Quá Nguy Hiểm 7 (Bản rõ nét)

Thảo luận trong 'm-HD | m-720p' bắt đầu bởi ghost0bk, 25 Tháng tư 2015.

  1. ghost0bk

    ghost0bk www.KeyPhanMem.info Staff Member

    [​IMG]

    Mã:
    
    
    Mã:
    [/FONT]
    Complete name : Fast and Furious 7 2015 720p HDTS x264 AC3 TiTAN.mkv
    Format : Matroska
    Format version : Version 2
    File size : 2.61 GiB
    Duration : 2h 6mn
    Overall bit rate : 2 949 Kbps
    Video
    ID : 1
    Format : AVC
    Format/Info : Advanced Video Codec
    Format profile : Main@L4.1
    Format settings, CABAC : Yes
    Format settings, ReFrames : 5 frames
    Codec ID : V_MPEG4/ISO/AVC
    Duration : 2h 6mn
    Bit rate : 2 500 Kbps
    Width : 1 280 pixels
    Height : 596 pixels
    Display aspect ratio : 2.148
    Frame rate mode : Constant
    Frame rate : 25.000 fps
    Color space : YUV
    Chroma subsampling : 4:2:0
    Bit depth : 8 bits
    Scan type : Progressive
    Bits/(Pixel*Frame) : 0.131
    Stream size : 2.16 GiB (83%)
    Audio
    ID : 2
    Format : AC-3
    Format/Info : Audio Coding 3
    Mode extension : CM (complete main)
    Format settings, Endianness : Big
    Codec ID : A_AC3
    Duration : 2h 6mn
    Bit rate mode : Constant
    Bit rate : 448 Kbps
    Channel count : 2 channels
    Channel positions : Front: L R
    Sampling rate : 48.0 KHz
    Bit depth : 16 bits
    Compression mode : Lossy
    Stream size : 405 MiB (15%)
    Language : English
    Default : Yes
    Forced : No




    Phim Furious 7 (Quá Nhanh Quá Nguy Hiểm 7) là phần 7 của loạt series Fast & Furious nổi tiếng. Ở cuối phần trước, tưởng chừng như mọi chuyện đã kết thúc, và mở ra một cuộc sống bình lặng, khi cả nhóm đã tiêu diệt được Owen Shaw. Thì trong phần này, sự xuất hiện của Ian Shaw (Jason Statham), người đã giết chết Han (Sung Kang), và khiêu chiến với Dominic Toretto (Vin Diesel), để trả thù cho em trai Owen Shaw của mình, đã làm thay đổi tất cả. Khiến cho cuộc đụng độ giữa 2 băng nhóm lên đến đỉnh điểm."





    [​IMG][​IMG][​IMG]
    [​IMG][​IMG][​IMG]
    [​IMG][​IMG][​IMG]
    [​IMG][​IMG][​IMG]


    :4s:
    Hidden Content:
    **Hidden Content: You must click 'Like' before you can see the hidden data contained here.**
    Fshare.VN
    Mã:
    
    
    Mã:
    https://www.fshare.vn/folder/BH9KSX5JZ38M[/CODE]
    Mã:
    Sub Việt chuẩn:
    Link 6 phần khác
    Hidden Content:
    **Hidden Content: You must click 'Like' before you can see the hidden data contained here.**
    [/CENTER]
     
  2. Hình ảnh này hình như của bọn Tàu khựa phải không ? Mình sợ nhất là nó chèn Sub Tàu vào, còn chất lượng hình ảnh của bản Encode kiểu này thì tạm được.
    Chắc cố kìm nén chờ bản đẹp từ Bluray vậy. Save về xem lại thui, phim này phải ra Xi ne ma xem ngon hơn ^_^!
     

Chia sẻ trang này