[FSHARE] Gặp nhau cuối năm- Táo quân 2012 [Uncut]

Thảo luận trong 'DVDRip & Non-HD Movies' bắt đầu bởi cugia1991, 29 Tháng mười một 2012.

  1. cugia1991

    cugia1991 Member



    [/size][/color][/i]

    [​IMG]



    Dám nhìn thẳng, không hề né tránh, Táo quân 2012 hứa hẹn tiếp tục mang đến món ăn tinh thần ý nghĩa vào dịp tết Nguyên đán. Buổi ghi hình đầu tiên đã diễn ra vào tối 13.1 tại Cung văn hóa Hữu nghị Hà Nội.

    Chương trình Táo quân 2012 do 10 tác giả viết kịch bản, được chia thành nhiều khâu khác nhau từ thu thập thông tin, sự kiện, cho đến biên tập, viết đề cương, chỉnh sửa nhiều lần mới ra kịch bản chính. Liên tục trong 15-20 ngày qua, các nghệ sĩ tham gia thường phải luyện tập với cường độ cao, suốt đêm cho tới tận 6 giờ sáng.

    Ngay sau buổi ghi hình đầu tiên, ê kíp thực hiện đã cùng họp lại chỉnh sửa từng chi tiết: lời thoại, trang phục, âm thanh... Trước buổi ghi hình thứ hai, cả nhóm vẫn tiếp tục luyện tập, trau chuốt từng phân cảnh, động tác, lời nói. Chương trình Táo quân 2012 được phát sóng vào lúc 20 giờ ngày 22.1 (tức 29 tết) trên Đài truyền hình VN.











    [​IMG]





    General
    Complete name : G:\VIDEO_TS_VTS_01_1.VOB
    Format : MPEG-PS
    File size : 918 MiB
    Duration : 25mn 54s
    Overall bit rate mode : Variable
    Overall bit rate : 4 953 Kbps

    Video
    ID : 224 (0xE0)
    Format : MPEG Video
    Format version : Version 2
    Format profile : Main@Main
    Format settings, BVOP : Yes
    Format settings, Matrix : Custom
    Format settings, GOP : M=3, N=12
    Duration : 25mn 54s
    Bit rate mode : Variable
    Bit rate : 4 599 Kbps
    Maximum bit rate : 4 856 Kbps
    Width : 720 pixels
    Height : 576 pixels
    Display aspect ratio : 4:3
    Frame rate : 25.000 fps
    Standard : PAL
    Color space : YUV
    Chroma subsampling : 4:2:0
    Bit depth : 8 bits
    Scan type : Interlaced
    Scan order : Top Field First
    Compression mode : Lossy
    Bits/(Pixel*Frame) : 0.444
    Stream size : 852 MiB (93%)

    Audio
    ID : 189 (0xBD)-128 (0x80)
    Format : AC-3
    Format/Info : Audio Coding 3
    Mode extension : CM (complete main)
    Format settings, Endianness : Big
    Muxing mode : DVD-Video
    Duration : 25mn 54s
    Bit rate mode : Constant
    Bit rate : 256 Kbps
    Channel(s) : 2 channels
    Channel positions : Front: L R
    Sampling rate : 48.0 KHz
    Bit depth : 16 bits
    Compression mode : Lossy
    Delay relative to video : -80ms
    Stream size : 47.4 MiB (5%)

    Menu





    Note : Use KMP / Splash Pro / MPC / VLC to watch film

    [​IMG]

    [​IMG]


    :dl:
    :dl:
     
  2. cugia1991

    cugia1991 Member

    hic ko để ý quên mất p cái disk 2
     
    Mitxitorang thích bài này.
  3. lambanmai8283

    lambanmai8283 VietForum.vn Staff Member

    :anhiu:vaihang
     
    Mitxitorang thích bài này.
  4. noruta

    noruta S-Friend

    Cái lầy nà sao???:caigie: chưa đến tết mà đã có??
     
    Mitxitorang thích bài này.
  5. cugia1991

    cugia1991 Member

    coi đi rồi biết, tối về phòng up tiếp disk 2 :canthan:
     
    Mitxitorang thích bài này.
  6. noruta

    noruta S-Friend

    giữ data hôm nào gặp em cóp cho nhanh nghe cugia. Mai có đi ăn nầm dê với anh Bò ko, cầm theo lapt đi, em cóp USB :">
     
    Mitxitorang thích bài này.
  7. cugia1991

    cugia1991 Member

    làm báo cáo đồ án, xong thì chạy lên, à có xe ko chạy qua chở ta luôn :band:
    tối về mới ốc hút nhá
     
  8. HCproboy

    HCproboy Member

    cái này là Táo quân Tết vừa rồi mà các bác ;))
     
    Mitxitorang thích bài này.

Chia sẻ trang này