[Fshare/TenLua] Frozen 2013 DVDScr XViD AC3-FiNGERBLaST - Nữ Hoàng Băng Giá (2013)

Thảo luận trong 'DVDRip & Non-HD Movies' bắt đầu bởi kulee, 11 Tháng một 2014.

  1. kulee

    kulee S-Friend



    [WALT DISNEY]
    [Hoạt Hình - Hài - Phiêu Lưu]

    Frozen - Nữ Hoàng Băng Giá (2013)
    DVDSCR XViD AC3-FiNGERBLaST

    (Kristen Bell, Idina Menzel, Jonathan Groff, Josh Gad)

    [​IMG]

    [​IMG]



    Mã:
    Format                                   : AVI
    Format/Info                              : Audio Video Interleave
    File size                                : 1.43 GiB
    Duration                                 : 1h 40mn
    Overall bit rate                         : 2 031 Kbps
    Writing library                          : VirtualDub build 30091/release
     
     
    Video
    ID                                       : 0
    Format                                   : MPEG-4 Visual
    Format profile                           : Advanced Simple@L5
    Format settings, BVOP                    : 2
    Format settings, QPel                    : No
    Format settings, GMC                     : No warppoints
    Format settings, Matrix                  : Default (H.263)
    Muxing mode                              : Packed bitstream
    Codec ID                                 : XVID
    Codec ID/Hint                            : XviD
    Duration                                 : 1h 40mn
    Bit rate                                 : 1 572 Kbps
    Width                                    : 720 pixels
    Height                                   : 320 pixels
    Display aspect ratio                     : 2.25:1
    Frame rate                               : 29.970 fps
    Color space                              : YUV
    Chroma subsampling                       : 4:2:0
    Bit depth                                : 8 bits
    Scan type                                : Progressive
    Compression mode                         : Lossy
    Bits/(Pixel*Frame)                       : 0.228
    Stream size                              : 1.11 GiB (77%)
    Writing library                          : XviD 64
     
     
    Audio
    ID                                       : 1
    Format                                   : AC-3
    Format/Info                              : Audio Coding 3
    Mode extension                           : CM (complete main)
    Format settings, Endianness              : Big
    Codec ID                                 : 2000
    Duration                                 : 1h 40mn
    Bit rate mode                            : Constant
    Bit rate                                 : 448 Kbps
    Channel count                            : 6 channels
    Channel positions                        : Front: L C R, Side: L R, LFE
    Sampling rate                            : 48.0 KHz
    Bit depth                                : 16 bits
    Compression mode                         : Lossy
    Stream size                              : 323 MiB (22%)
    Alignment                                : Aligned on interleaves
    Interleave, duration                     : 33 ms (1.00 video frame)
    Interleave, preload duration             : 512 ms
    
    [​IMG] [​IMG] [​IMG] [​IMG] [​IMG] [​IMG] [​IMG] [​IMG] [​IMG] [​IMG] [​IMG]




    [​IMG]
    Mã:
    http://www.fshare.vn/file/TM6QGGNXTT/
    Hoạc
    Mã:
    http://tenlua.vn/phim-hd-0f37e327e90c6c/#download0f37e327e90c6c
    SUB Việt
     

Chia sẻ trang này