Little Children 2006 ViE 720p HDTV DD2.0 x264-hV | Gái Có Chồng

Thảo luận trong 'Blu-ray 720p' bắt đầu bởi Philong123, 5 Tháng một 2017.

  1. Philong123

    Philong123 S-Friend

    Little Children 2006 ViE 720p HDTV DD2.0 x264-hV
    Gái Có Chồng



    [​IMG]



    Mã:
    
    Complete name                  : Little.Children.2006.ViE.720p.HDTV.DD2.0.x264-hV
    Format                         : Matroska
    Format version                 : Version 4 / Version 2
    File size                      : 4.78 GiB
    Duration                       : 2h 11mn
    Overall bit rate               : 5 221 Kbps
    Encoded date                   : UTC 2016-12-28 15:24:30
    Writing application            : mkvmerge v6.6.0 ('The Edge Of The In Between') built on Dec  1 2013 17:55:00
    Writing library                : libebml v1.3.0 + libmatroska v1.4.1
    
    
    Video
    ID                             : 3
    Format                         : AVC
    Format/Info                    : Advanced Video Codec
    Format profile                 : High@L5.1
    Format settings, CABAC         : Yes
    Format settings, ReFrames      : 8 frames
    Codec ID                       : V_MPEG4/ISO/AVC
    Duration                       : 2h 11mn
    Bit rate                       : 4 387 Kbps
    Width                          : 1 280 pixels
    Height                         : 528 pixels
    Display aspect ratio           : 2.40:1
    Frame rate mode                : Constant
    Frame rate                     : 25.000 fps
    Color space                    : YUV
    Chroma subsampling             : 4:2:0
    Bit depth                      : 8 bits
    Scan type                      : Progressive
    Bits/(Pixel*Frame)             : 0.260
    Stream size                    : 3.92 GiB (82%)
    Writing library                : x264 core 56 svn-680
    Encoding settings              : cabac=1 / ref=5 / deblock=1:0:0 / analyse=0x3:0x133 / me=umh / subme=5 / brdo=0 / mixed_ref=1 / me_range=16 / chroma_me=1 / trellis=1 / 8x8dct=1 / cqm=2 / deadzone=4,6 / chroma_qp_offset=0 / threads=3 / nr=0 / decimate=1 / mbaff=0 / bframes=3 / b_pyramid=1 / b_adapt=1 / b_bias=0 / direct=3 / wpredb=1 / bime=1 / keyint=250 / keyint_min=25 / scenecut=40(pre) / rc=2pass / bitrate=4387 / ratetol=1.0 / rceq='blurCplx^(1-qComp)' / qcomp=0.60 / qpmin=10 / qpmax=51 / qpstep=4 / cplxblur=20.0 / qblur=0.5 / ip_ratio=1.40 / pb_ratio=1.30 / zones=187827,196683,b=0.15 / aq=1:0.3:15.0
    Language                       : English
    Default                        : Yes
    Forced                         : No
    
    
    Audio #1
    ID                             : 1
    Format                         : AC-3
    Format/Info                    : Audio Coding 3
    Mode extension                 : CM (complete main)
    Format settings, Endianness    : Big
    Codec ID                       : A_AC3
    Duration                       : 2h 11mn
    Bit rate mode                  : Constant
    Bit rate                       : 448 Kbps
    Channel(s)                     : 2 channels
    Channel positions              : Front: L R
    Sampling rate                  : 48.0 KHz
    Bit depth                      : 16 bits
    Compression mode               : Lossy
    Stream size                    : 420 MiB (9%)
    Title                          : Thuyết Minh 2.0 l Vinadot@Present l NetHD.Org
    Language                       : Vietnamese
    Default                        : Yes
    Forced                         : Yes
    
    
    Audio #2
    ID                             : 2
    Format                         : AC-3
    Format/Info                    : Audio Coding 3
    Mode extension                 : CM (complete main)
    Format settings, Endianness    : Big
    Codec ID                       : A_AC3
    Duration                       : 2h 11mn
    Bit rate mode                  : Constant
    Bit rate                       : 384 Kbps
    Channel(s)                     : 2 channels
    Channel positions              : Front: L R
    Sampling rate                  : 48.0 KHz
    Bit depth                      : 16 bits
    Compression mode               : Lossy
    Stream size                    : 360 MiB (7%)
    Language                       : English
    Default                        : No
    Forced                         : No
    



    Sarah (Kate Winslet) là một người phụ nữ bình thường như bao nguòi phụ nữ khác. hàng ngày, khi đưa con gái ra công viên chơi cùng các bà mẹ khác, họ lại ngồi tán gẫu, nhưng cũng chỉ xung quanh chuyện nội trợ, gia đình. Cuộc sống nhàm chán nhưng Sarah luôn cố gắng hi sinh để gìn giữ mái ấm của mình. Cô cố gắng sống trọn vẹn từng ngày vì chồng con. Brad (Patrick Wilson) là một người đàn ông gợi cảm. Lẽ ra, anh pahỉ là người sung sướng nhất. Brad không đi làm,chỉ ở nhà chăm sóc con trai, mọi gánh nặng đè lên lưng cô vợ hoàn hảo Kathy (Jennifer Connelly). Hoàn hảo vì cô đẹp dạng dỡ, cô có một công việc ổn định (đạo diễn phim tài liệu) và luôn luôn động viên Brad. Brad đang cố thi lấy bằng luật, mặc dù đã truợt rất nhiều. Nhưng Brad không hạnh phục mà ngậm trong mình sự mặc cảm. Mặc cảm vì mình bất tài, mặc cảm vì mọi chi tiêu đều do cô vợ quản lý. Sự động viên của Kathy để giúp Brad thi đỗ vào trường luật dần trở thành sự ép buộc vì gia đình đang gặp vấn đề tài chính, và nếu Brad lấy được bằng luật, thì có gnhĩa là anh có thể đi làm. Nhưng Brad cũng câm nín, sống trọn vẹn từng ngày để làm hài lòng Kathy. Ronnie (Jackie Earle Haley) thì vừa ra khỏi tù, anh từng bị kết án vì tội xâm hại tình dục trẻ em. Anh sống với một người mẹ luôn luôn dành mọi tình thương cho anh. Nếu hàng xóm ghẻ lạnh, khinh miệt Ronnie bao nhiêu, thì tình yêu của bà dành cho Ronnie càng lớn biết bao. Bà luôn tin rằng Ronnie là một người tốt và sẽ giúp được Ronnie nếu tìm được bạn gái cho anh. Tuy nhiên, bản năng tình dục thì không thể thay đổi một sớm một chiều. Dù mẹ có nghĩ Ronnie tuyệt vời đến mấy, thì trong đầu, ronnie biết anh không hề thay đổi và đnág ghê tởm. Ronnie cũng không hạnh phúc mặc dù được yêu nhiều đến vậy. Ronnie luôn sống trong mặc cảm tội lỗi mỗi khi đối diện với mẹ. Nhưng anh luôn cố gắng sống trọn vẹn từng ngày để làm hài lòng nguời mẹ. Đó là cuộc sống trong khu ngoại ô. Ai ai cũng cố gắng đeo một chiêc mặt ná, nở một nụ cười gượng ép và tự nhủ "Mình đang Hạnh phúc". tất cả để đảm bảo rằng bên trong ngôi nhà biệt thự, có khu vườn bao quanh, với chiêc ô tô to lớn và một gia đình hạnh phúc.





    [​IMG] [​IMG] [​IMG] [​IMG] [​IMG] [​IMG] [​IMG] [​IMG] [​IMG]





    Link Fshare.VN:

    Mã:
    https://www.fshare.vn/file/EUQW4GR55Y8V

    Link 4share.VN:

    Mã:
    http://4share.vn/f/2c191f181d1a1d1d/Little.Children.2006.ViE.720p.HDTV.DD2.0.x264-hV.mkv.file

    Link Chiase.IO ( Free ):

    Mã:
    http://chiase.io/s/190007935/620db81a-06ba-4fae-a8c3-e3ea1b5a1cca/0237b654-78bf-46bf-9869-fe7aa6696762



    Subscene

    Mã:
    https://subscene.com/
     

Chia sẻ trang này