[ Phiêu Lưu ] 127 Hours 2010 mHD BluRay x264-EPiK ~ 127 Giờ Sinh Tử

Thảo luận trong 'm-HD | m-720p' bắt đầu bởi Philong123, 26 Tháng sáu 2016.

  1. Philong123

    Philong123 S-Friend

    127 Hours 2010 mHD BluRay x264-EPiK
    127 Giờ Sinh Tử
    ( James Franco, Kate Mara, Amber Tamblyn )



    [​IMG]



    Mã:
    Complete name                    : 127 Hours 2010 mHD BluRay x264-EPiK
    Format                           : Matroska
    File size                        : 1.88 GiB
    Duration                         : 1h 33mn
    Overall bit rate                 : 2 874 Kbps
    Movie name                       : EPiK ~ all.hdvnbits.org
    Encoded date                     : UTC 2011-02-17 13:57:03
    Writing application              : mkvmerge v4.5.0 ('Speed of Light') built on Feb  1 2011 02:10:32
    Writing library                  : libebml v1.2.0 + libmatroska v1.1.0
    
    Video
    ID                               : 1
    Format                           : AVC
    Format/Info                      : Advanced Video Codec
    Format profile                   : High@L4.1
    Format settings, CABAC           : Yes
    Format settings, ReFrames        : 8 frames
    Codec ID                         : V_MPEG4/ISO/AVC
    Duration                         : 1h 33mn
    Bit rate                         : 2 369 Kbps
    Width                            : 1 280 pixels
    Height                           : 688 pixels
    Display aspect ratio             : 1.860
    Frame rate                       : 23.976 fps
    Color space                      : YUV
    Chroma subsampling               : 4:2:0
    Bit depth                        : 8 bits
    Scan type                        : Progressive
    Bits/(Pixel*Frame)               : 0.112
    Stream size                      : 1.55 GiB (82%)
    Title                            : EPiK ~ all.hdvnbits.org
    Writing library                  : x264 core 114 r1900 60ef1f8
    Encoding settings                : cabac=1 / ref=8 / deblock=1:-3:-3 / analyse=0x3:0x113 / me=umh / subme=9 / psy=1 / psy_rd=0.90:0.00 / mixed_ref=1 / me_range=16 / chroma_me=1 / trellis=2 / 8x8dct=1 / cqm=0 / deadzone=21,11 / fast_pskip=0 / chroma_qp_offset=-2 / threads=6 / sliced_threads=0 / nr=0 / decimate=0 / interlaced=0 / constrained_intra=0 / bframes=7 / b_pyramid=2 / b_adapt=2 / b_bias=0 / direct=3 / weightb=1 / open_gop=0 / weightp=2 / keyint=250 / keyint_min=23 / scenecut=40 / intra_refresh=0 / rc_lookahead=40 / rc=crf / mbtree=1 / crf=21.0 / qcomp=0.60 / qpmin=0 / qpmax=69 / qpstep=4 / ip_ratio=1.40 / aq=1:0.80
    Language                         : English
    
    Audio
    ID                               : 2
    Format                           : AC-3
    Format/Info                      : Audio Coding 3
    Mode extension                   : CM (complete main)
    Codec ID                         : A_AC3
    Duration                         : 1h 33mn
    Bit rate mode                    : Constant
    Bit rate                         : 448 Kbps
    Channel(s)                       : 6 channels
    Channel positions                : Front: L C R, Side: L R, LFE
    Sampling rate                    : 48.0 KHz
    Bit depth                        : 16 bits
    Compression mode                 : Lossy
    Stream size                      : 300 MiB (16%)
    Title                            : EPiK ~ all.hdvnbits.org
    Language                         : English
    
    



    127 Hours đưa người xem cùng trải qua hành trình gay cấn tự giải thoát của chàng trai ưa mạo hiểm Aron Ralston. Khi bị rơi vào một hố sâu và không có sự trợ giúp nào từ bên ngoài, anh đã tự mình cắt đứt phần dưới cánh tay bằng một con dao cùn để tự cứu lấy cuộc sống của mình. Dựa trên câu chuyện có thật, bộ phim thích hợp với khán giả ưa khám phá phiêu lưu, nơi họ sẽ tìm thấy sự can đảm, gan lì và giải quyết tình huống một cách thông minh của con người trước cái chết cận kề. Ngoài ra, 127 Hours do Danny Boyle dàn dựng với diễn xuất ấn tượng của Người đàn ông của năm James Franco, đã đem đến những thành công bất ngờ. Mang về đề cử Oscar Phim hay nhất và Nam diễn viên xuất sắc nhất.






    [​IMG] [​IMG] [​IMG] [​IMG]





    [​IMG]

    Hidden Content:
    **Hidden Content: You must click 'Like' before you can see the hidden data contained here.**

    Subscene

     
    tinpy90 thích bài này.

Chia sẻ trang này