Planet Earth II 2016 Disc 2 BluRay 1080p AVC DTS-HD MA 5.1-NetBD | Hành Tinh Trái Đất II { Sub Việt

Thảo luận trong 'HD Documentaries' bắt đầu bởi Philong123, 31 Tháng mười hai 2016.

  1. Philong123

    Philong123 S-Friend

    Planet Earth II 2016 Disc 2 BluRay 1080p AVC DTS-HD MA 5.1-NetBD
    Hành Tinh Trái Đất II



    [​IMG]



    Mã:
    
    DISC INFO:
    
    Disc Title:     PLANET_EARTH_II_DISC2_NETBD
    Disc Size:      44,623,320,065 bytes
    Protection:     AACS
    BD-Java:        No
    Extras:         50Hz Content
    BDInfo:         0.5.8
    
    PLAYLIST REPORT:
    
    Name:                   00017.MPLS
    Length:                 2:55:03.119 (h:m:s.ms)
    Size:                   44,274,352,128 bytes
    Total Bitrate:          33.72 Mbps
    
    (*) Indicates included stream hidden by this playlist.
    
    VIDEO:
    
    Codec                   Bitrate             Description     
    -----                   -------             -----------     
    MPEG-4 AVC Video        29824 kbps          1080i / 25 fps / 16:9 / High Profile 4.1
    
    AUDIO:
    
    Codec                           Language        Bitrate         Description     
    -----                           --------        -------         -----------     
    DTS-HD Master Audio             English         2096 kbps       5.1 / 48 kHz / 2096 kbps / 16-bit (DTS Core: 5.1 / 48 kHz / 1509 kbps / 16-bit)
    
    SUBTITLES:
    
    Codec                           Language        Bitrate         Description     
    -----                           --------        -------         -----------     
    Presentation Graphics           Vietnamese      54.598 kbps                     
    * Presentation Graphics         English         32.661 kbps                     
    
    FILES:
    
    Name            Time In         Length          Size            Total Bitrate   
    ----            -------         ------          ----            -------------   
    00002.M2TS      0:00:00.000     0:58:10.040     14,732,058,624  33,769          
    00003.M2TS      0:58:10.040     0:58:14.040     14,746,306,560  33,763          
    00015.M2TS      1:56:24.080     0:58:39.040     14,795,986,944  33,636          
    
    
    
    
    
    






    Đây là sản phẩm tâm huyết của Sub Team NetBD.
    Khi chia sẽ ra ngoài NetHD.org, vui lòng giữ nguyên những thông tin sau:

    #Giữ nguyên tag NetBD trên tiêu đề phim.
    #Bắt buộc phải giữ các screenshots có Credit.

    Xin gửi lời cảm ơn đến những người đã làm thuyết minh và phụ đề cho bộ phim này.

    Share free, re-up cũng free nên hãy tôn trọng công sức của nhau mà ghi rõ nguồn nhé các bác.



    Hành Tinh Trái Đất 2 là series phim tài liệu về tự nhiên của đài BBC, tiếp nồi phần 1 được phát sóng năm 2006. Được Sir David Attenborough dẫn truyện, âm nhạc Hans Zimmer. Trailer đầu tiên được phát hành ngày 09/10/2016, và tập phim đầu tiên công chiếu ngày 06/11/2016 trên BBC One và BBC One HD và gồm có 6 tập. Planet Earth 2 là bộ phim đầu tiên BBC sản xuất dưới định dạng UltraHD, 4k.


    Nguồn: hatieupro@NetHD
    Biên dịch: hatieupro, altamodano, cuongctcclh | NetHD.ORG
    Remux: NetBD Team
    ĐẶC BIỆT CẢM ƠN ALTAMODANO ĐÃ HỖ TRỢ HOÀN TẤT BỘ BLURAY NÀY






     

Chia sẻ trang này