The Boxer from Shantung 1972 ViE 1080p Bluray DD2.0 x264-CGV - Huyền Thoại Mã Vinh Trinh { Thuyết Mi

Thảo luận trong 'Blu-ray 1080p' bắt đầu bởi Philong123, 4 Tháng một 2017.

  1. Philong123

    Philong123 S-Friend

    The Boxer from Shantung 1972 ViE 1080p Bluray DD2.0 x264-CGV
    Huyền Thoại Mã Vinh Trinh



    [​IMG]



    Mã:
    
    Complete name                  : The.Boxer.from.Shantung.1972.ViE.1080p.Bluray.DD2.0.x264-CG.V
    Format                         : Matroska
    Format version                 : Version 4 / Version 2
    File size                      : 9.25 GiB
    Duration                       : 2h 4mn
    Overall bit rate mode          : Variable
    Overall bit rate               : 10.7 Mbps
    Encoded date                   : UTC 2016-12-30 08:49:34
    
    
    Video
    ID                             : 2
    Format                         : AVC
    Format/Info                    : Advanced Video Codec
    Format profile                 : Main@L5.0
    Format settings, CABAC         : Yes
    Format settings, ReFrames      : 2 frames
    Format settings, GOP           : M=1, N=5
    Codec ID                       : V_MPEG4/ISO/AVC
    Duration                       : 2h 4mn
    Bit rate mode                  : Variable
    Bit rate                       : 9 672 Kbps
    Maximum bit rate               : 20.0 Mbps
    Width                          : 1 920 pixels
    Height                         : 1 080 pixels
    Display aspect ratio           : 16:9
    Frame rate mode                : Constant
    Frame rate                     : 24.000 fps
    Standard                       : NTSC
    Color space                    : YUV
    Chroma subsampling             : 4:2:0
    Bit depth                      : 8 bits
    Scan type                      : Progressive
    Bits/(Pixel*Frame)             : 0.194
    Stream size                    : 8.39 GiB (91%)
    Language                       : English
    Default                        : Yes
    Forced                         : No
    
    
    Audio #1
    ID                             : 1
    Format                         : AC-3
    Format/Info                    : Audio Coding 3
    Mode extension                 : CM (complete main)
    Format settings, Endianness    : Big
    Codec ID                       : A_AC3
    Duration                       : 2h 4mn
    Bit rate mode                  : Constant
    Bit rate                       : 448 Kbps
    Channel(s)                     : 2 channels
    Channel positions              : Front: L R
    Sampling rate                  : 48.0 KHz
    Bit depth                      : 16 bits
    Compression mode               : Lossy
    Stream size                    : 398 MiB (4%)
    Title                          : Thuyết Minh DD2.0@448kbps l Vinadot@Present l NetHD.Org
    Language                       : Vietnamese
    Default                        : Yes
    Forced                         : Yes
    
    
    Audio #2
    ID                             : 3
    Format                         : AC-3
    Format/Info                    : Audio Coding 3
    Mode extension                 : CM (complete main)
    Format settings, Endianness    : Big
    Codec ID                       : A_AC3
    Duration                       : 2h 4mn
    Bit rate mode                  : Constant
    Bit rate                       : 320 Kbps
    Channel(s)                     : 2 channels
    Channel positions              : Front:L R
    Sampling rate                  : 48.0 KHz
    Bit depth                      : 16 bits
    Compression mode               : Lossy
    Stream size                    : 284 MiB (3%)
    Language                       : Chinese
    Default                        : No
    Forced                         : No
    



    Mã VĩnhTrinh( Trần Quang Thái ) cùng với bạn Tiểu Giang Bắc, quê từ Sơn Đông, nghèo khổ ra đến Thượng hải; mong kiếm việc làm. Ở nhà trọ tồi tàn, từng bị khinh khi nên Mã Vĩnh Trinh cũng mong ngày nào với sức mạnh của mình làm nên tên tuổi ở đất Thượng Hải. Tình cờ trong dịp định rửa xe, anh quen với Đàm Tư đại sư ( Khương Đại vệ) giàu có, đi xe ngựa riêng mến tài võ thuật anh đã thi đấu với nhau một lần. Một ngày, 2 anh chợt ghé vào quán trà gặp 2 nhóm băng **** Đàm Tư và bọn Tứ vô địch đánh nhau ác liệt. Bị xô vào mình 1 tên bị giết, anh phải ra tay đánh cho bọn Tứ vô địch tơi tả trong đó 2 tên thủ lĩnh: họ Lý bị gãy tay, 1 tên A Căn có bàn tay sưng vù. Thủ hạ Đàm Tư tặng tiền cho anh,nhưng anh vẫn không nhận và nói có quen Đàm Tư. Tại Xuân Hồ trà quán anh cũng biết một đào hát là Kim LinhTử. Tên đầu xỏ bọn Tứ vô dịch, là Trương lão bản nói thủ hạ xin lỗi Đàm Tư. Sau đó hắn còn cữ bộ hạ đến tận nhà trọ mới Mã VĩnhTrinh làm việc để đối phó Đàm Tư. Anh không nhận vì coi Đàm Tư là bạn, cả bọn tức tối về dù trước đó có thị uy bằng 7 nhát búa. Mã Vĩnh Trinh được chủ quán nễ trọng cho ở 1 phòng riêng trên lầu.





    [​IMG] [​IMG] [​IMG] [​IMG] [​IMG] [​IMG] [​IMG] [​IMG] [​IMG]





    Link Fshare.VN:

    Mã:
    https://www.fshare.vn/file/BDQAWHC2ZJF7

    Link 4share.VN:

    Mã:
    http://4share.vn/f/526761616a676163/The.Boxer.from.Shantung.1972.ViE.1080p.Bluray.DD2.0.x264-CG.V.mkv.file

    Link Chiase.IO ( Free ):

    Mã:
    http://chiase.io/s/190007935/620db81a-06ba-4fae-a8c3-e3ea1b5a1cca/7b3d0702-a51a-43c9-8d05-e24d0c033005



    Subscene

    Mã:
    https://subscene.com/
     

Chia sẻ trang này